Skip directly to content

Cue Sheet - Cue File

Portrait de zozodesbois
on ven, 16/09/2011 - 13:35
  1. Tout de même... c'est culotté !
  2. Un Cue Sheet c'est quoi ?
  3. Petite démonstration
  4. Description du fichier Cue
  5. Autour du Cue Sheet
  6. Conclusion
  7. Références
Crédit image: © Zozodesbois
Fiche écrite avec le Firmware C750/748

Tout de même... c'est culotté !

Bon, et bien là, je fais fort ! Je vais vous décrire un truc qui ne marche pas sur nos HMB ! sad

Enfin, j'exagère tout de même un peu, lorsque je dis que ça ne marche pas, on peut dire que ça marche... mais pas complètement.

On y va ? smiley

Un Cue Sheet c'est quoi ?

Un Cue Sheet (on le trouve aussi sous le nom de Cue File), c'est un simple fichier de texte. Vous pouvez l'ouvrir pour voir comment il est constitué.
Seul, il ne sert à rien. Il doit être associé à un fichier média, il peut avoir un nom complètement différent.
Son rôle va être de décrire le contenu du fichier média, en indiquant des points de rupture.

C'est CDRWIN qui est à l'origine de ces fichiers. Un CD audio contient autant de pistes (Tracks) qu'il a de musiques. CDRWIN, va faire une image, sur le disque dur, du CD a copier en regroupant toutes ses données dans un seul gros fichier. Il va contenir l'ensemble des musiques. A côté il va créer ce petit fichier Cue qui va contenir uniquement les informations sur la structure de ce gros fichier. Au moment de la gravure, il va permettre le découpage et ainsi reconstituer le CD avec ses pistes.

Ce système a ensuite été transposé à des fichiers de musique. Toutes les musiques d'un CD, l'album complet, est mis dans un seul gros fichier MP3, OGG, FLAC ou autre. Accompagné d'un petit fichier Cue qui contient toutes les informations sur l'album: l'artiste, les noms des chansons, les durées... Foobar2000 est un des premiers players à s'être adapté. Maintenant la plupart des players savent utiliser les Cue Sheet.

Nos HMB, reconnaissent les Cue Sheet musicaux... mais... il faut essayer pour voir que ce n'est pas tout à fait ça !

Petite démonstration

Maintenant passons au concret. Pour commencer, voici le merveilleux album de David Löhstana (il est libre de droits et surtout il est gratuit).

CreativeCommons_logo.png

J'adore ce qu'il fait et en plus David Löhstana est Français !

Alors, si comme moi vous aimez, n'hésitez pas à lui faire un petit don (de 5€ ou plus... pensez aux prix que vous payez vos CD de musique dans le commerce...).

J'ai mis boutes les musiques de son album bout à bout pour vous faire une petite démonstration. Le lien de téléchargement est ici.

(Rien ne vous empêche d'aller chercher les fichiers de musique normaux sur sa page sur Jamendo.com, mais c'est hors sujet pour notre démo)

Vous venez de télécharger une archive que je vous laisse le soin de désarchiver là où vous voulez. Par exemple sur une clé USB. Vous avez maintenant deux fichiers :

Lohstana David - Folk Acoustic.mp3
Lohstana David - Folk Acoustic.cue

Mettez votre clé USB sur votre HMB et sélectionnez le fichier .cue, ça va s'ouvrir comme une PlayList.
Première chose étrange, chaque musique apparaît avec une extension .ape. Ca ressemble bien à un bug ???
Bon, alors on essaye la première musique, jusque-là c'est bon, ça joue tout l'album dans l'ordre.
Mais là normalement, vous devriez pourvoir jouer le morceau que vous voulez... et bien non, ça ne marche pas, pour chaque musiques, ça joue toujours l'intégralité de l'album depuis le début... sad Du coup, ça perd de son intérêt ! 

Description du fichier Cue

L'album de David Lohstana contient 19 titres d'une durée totale de 50m et 20s

    1    Demain je change de vie         4:06
    2    Petit talibé                    3:26
    3    Alexandra 03                    4:17
    4    Bucolique Utopique              3:55
    5    Déjà tout bu                    1:51
    6    Dans un petit verre d'eau       3:25
    7    La pêche au thon                2:59
    8    La rupture                      3:23
    9    Secouez moi                     2:00
    10   Cerises                         3:40
    11   Petite chanson grivoise         0:54
    12   Quand je serai grand            3:11
    13   T'empailler toute nue           3:34
    14   Combien                         4:10
    15   Des oursins dans l'oesophage    3:35
    16   Acoustiblues                    0:45
    17   Jingle 01                       0:22
    18   Jingle 02                       0:23
    19   Jingle 03                       0:24

Maintenant regardons de prêt le fichier Cue.
Il peut avoir un nom complètement différent de celui du fichier qu'il accompagne. Ca marche puisque le nom du fichier est indiqué dans le Cue Sheet.

Voici ce que contient le fichier Cue Sheet de la démo (il y a nulle part cette extension .ape):

PERFORMER "Lohstana David"
TITLE "Folk Acoustic"
FILE "Lohstana David - Folk Acoustic.mp3" MP3
  TRACK 01 AUDIO
    TITLE "Demain je change de vie"
    INDEX 01 00:00:00
  TRACK 02 AUDIO
    TITLE "Petit talibé"
    INDEX 01 04:05:70
  TRACK 03 AUDIO
    TITLE "Alexandra 03"
    INDEX 01 07:32:46
  TRACK 04 AUDIO
    TITLE "Bucolique Utopique"
    INDEX 01 11:49:69
  TRACK 05 AUDIO
    TITLE "Déjà tout bu"
    INDEX 01 15:44:61
  TRACK 06 AUDIO
    TITLE "Dans un petit verre d'eau"
    INDEX 01 17:37:28
  TRACK 07 AUDIO
    TITLE "La pêche au thon"
    INDEX 01 21:02:27
  TRACK 08 AUDIO
    TITLE "La rupture"
    INDEX 01 24:02:28
  TRACK 09 AUDIO
    TITLE "Secouez moi"
    INDEX 01 27:25:49
  TRACK 10 AUDIO
    TITLE "Cerises"
    INDEX 01 29:25:67
  TRACK 11 AUDIO
    TITLE "Petite chanson grivoise"
    INDEX 01 33:06:02
  TRACK 12 AUDIO
    TITLE "Quand je serai grand"
    INDEX 01 34:00:51
  TRACK 13 AUDIO
    TITLE "T'empailler toute nue"
    INDEX 01 37:11:38
  TRACK 14 AUDIO
    TITLE "Combien"
    INDEX 01 40:46:07
  TRACK 15 AUDIO
    TITLE "Des oursins dans l'oesophage"
    INDEX 01 44:56:32
  TRACK 16 AUDIO
    TITLE "Acoustiblues"
    INDEX 01 48:31:26
  TRACK 17 AUDIO
    TITLE "Jingle 01"
    INDEX 01 49:16:65
  TRACK 18 AUDIO
    TITLE "Jingle 02"
    INDEX 01 49:39:12
  TRACK 19 AUDIO
    TITLE "Jingle 03"
    INDEX 01 50:02:34

Les trois premières lignes décrivent l'album en général

PERFORMER "Artiste"
TITLE "Titre de l'album"
FILE "Fichier.extension" TYPE

Vous avez le nom de l'artiste, le titre de l'album et le nom du fichier audio qui contient les musiques.

Le Type peut être MP3, WAV, OGG, FLAC etc...

Les lignes qui suivent marchent par 3 et correspondent aux musiques.

  TRACK 01 AUDIO
    TITLE "Titre de la musique"
    INDEX 01 mm:ss:th

mm pour les minutes, ss pour les secondes. Le th, c'est le nombre de trames: C'est la plus petite unité de temps dans un CD. Une trame est égale à 1/75 seconde.

Notez que le temps pour ces "pistes audio" sont des temps cumulés. Mais comme il y a une notion de trame, il y a forcément un décalage de quelques secondes.

Autour du Cue Sheet

Il existe énormément de logiciels qui utilisent les Cue Sheet musicaux :

  • Des éditeurs de .Cue qui vont chercher sur le Web des fichiers Cue Sheet tout prêts, comme CueMaster.
  • Des outils pour découper le fichier audio en fonction du contenu du Cue Sheet, comme Medieval-Cue-Splitter
  • Même un site web grimblefritz qui permet la conversion dans les 2 sens entre les Cue Sheet et les étiquettes d'Audacity
  • Pour finir, je citerais Mp3DirectCut qui est un petit outil très pratique qui sait générer des fichiers Cue en fonction de l'empreinte audio.

Conclusion

J'espère vous avoir fait découvrir quelque chose de plus sur nos HMB. Je reconnais que l'utilité est limitée, mais cela aura au moins servi à parler de l'album de David Löhstana. yes

Références

http://www.jamendo.com/fr site de musiques libres de droits.

http://wiki.hydrogenaudio.org/index.php?title=Cue_sheet
http://wiki.themixingbowl.org/Cue-Sheets
http://en.wikipedia.org/wiki/Cue_sheet_%28computing%29 le wiki (en français, c'est très pauvre...).

Votez: 
Pas encore de vote